#TITLE:Piano Battle;
#SUBTITLE:;
#ARTIST:Jay Chou;
#TITLETRANSLIT:Piano Battle;
#SUBTITLETRANSLIT:;
#ARTISTTRANSLIT:Chau Kiet Luan;
#CREDIT:;
#BANNER:piano-bn.png;
#BACKGROUND:piano-bg.jpg;
#LYRICSPATH:;
#CDTITLE:cdtitle.png;
#MUSIC:Piano Battle.ogg;
#OFFSET:0.000;
#SAMPLESTART:81.580;
#SAMPLELENGTH:20.000;
#SELECTABLE:YES;
#DISPLAYBPM:180.000;
#BPMS:0.000=180.000,96.000=120.600,148.000=150.000;
#STOPS:94.000=1.000
,94.500=0.049
,95.000=0.040
,95.500=0.040
,145.000=0.020
,145.333=0.020
,145.667=0.020
,146.333=0.020
,147.000=0.040
;
#BGCHANGES:;
// cache tags:
#FIRSTBEAT:0.000;
#LASTBEAT:325.000;
#SONGFILENAME:Songs/Music V.I.P ^_^/Piano Battle/Piano Battle.sm;
#HASMUSIC:1;
#HASBANNER:1;
#MUSICLENGTH:134.135;
// end cache tags

//---------------dance-single - ----------------
#NOTES:
     dance-single:
     :
     Hard:
     32:
     1.000,1.000,1.000,0.112,1.000,1290.000,234.000,15.000,0.000,13.000:
0001
0000
0000
0010
0000
0000
0100
0000
1000
0000
0000
0000
0000
0000
0000
0000
0000
0000
0000
0000
0000
0000
0000
0000
1000
0000
0100
0000
0010
0000
0001
0000
0000
0000
0000
0000
0000
0000
0000
0000
0000
0000
0000
0000
0000
0000
0000
0000
,
0020
0000
0000
0000
0000
0000
0000
0000
0000
0000
0000
0000
1030
0100
0010
0000
0000
0000
0000
0000
0000
0000
0000
0000
,
1001
0100
1000
0100
1001
0010
0100
0010
1001
0010
0100
0010
1000
0100
0010
0001
,
1010
0100
1000
0001
1010
0100
0010
0001
1010
0100
0001
0010
0100
1000
0100
0010
,
1001
0010
0100
0010
1001
0100
0010
0001
1010
0100
0001
0010
1100
0010
0001
0100
,
1001
0010
0100
0010
1001
0100
0010
0001
1010
0100
0001
0010
0100
0010
0001
0100
,
1010
0001
0100
0010
1001
0100
0010
0001
1010
0100
0001
0010
0100
0010
0001
0100
,
1010
0000
0000
0001
0000
0000
0100
0000
0000
0001
0000
0000
1010
0000
0000
0100
0000
0000
0010
0000
0000
0001
0000
0000
1010
0000
0000
0000
0001
0000
0000
0000
0010
0000
0000
0000
0001
0000
0000
0000
0010
0000
0000
0000
0001
0000
0000
0000
,
1010
0100
0010
0001
1000
0100
0010
0001
1000
0100
0010
0001
1000
0100
0010
0001
1000
0100
0010
0001
1000
0100
0010
0001
,
1010
0001
0100
0001
1000
0001
0100
0001
1000
0001
0100
0010
,
2002
3213
0321
2130
,
3202
0000
0000
0000
0000
0000
1323
0000
0000
1030
0000
0000
0000
0000
0000
0000
,
0110
1000
0010
1000
0110
0001
1000
0001
0110
0001
1000
0001
0010
1000
0001
0100
,
0011
1000
0010
0100
0011
1000
0001
0100
0011
1000
0100
0001
1000
0010
1000
0001
,
0110
0001
1000
0001
0110
1000
0001
0100
0011
1000
0100
0001
1010
0001
0100
1000
,
0110
0001
1000
0001
0110
1000
0001
0100
0011
1000
0100
0001
1000
0001
0100
1000
,
0011
0100
1000
0001
0110
1000
0001
0100
0011
1000
0100
0001
1000
0001
0100
1000
,
0011
0000
0000
0100
0000
0000
1000
0000
0000
0100
0000
0000
0011
0000
0000
1000
0000
0000
0001
0000
0000
0100
0000
0000
0011
0000
0000
0000
0100
0000
0000
0000
0001
0000
0000
0000
0100
0000
0000
0000
0001
0000
0000
0000
0100
0000
0000
0000
,
0011
1000
0100
0010
1001
0100
0010
0001
1001
0100
0010
0001
1001
0100
0010
0001
,
1001
0010
0100
1000
1001
0010
0100
1000
1001
0010
0100
1000
1001
0010
0100
1000
,
0001
0010
0100
0010
0001
0100
0010
0001
0100
0010
1001
0010
0100
0001
1010
0100
,
1001
0100
0001
0010
1001
0100
1010
0001
1100
0010
1001
0100
0010
0001
1010
0100
,
1001
0100
0010
0100
1001
0100
0010
0100
1001
0100
0010
0100
0010
0100
0010
0100
,
1001
0000
1111
0000
,
1001
0000
0000
0000
0000
0000
0000
0000
0000
0110
0000
0000
0000
0000
0000
0000
0110
0000
0000
0000
0000
0000
0000
1001
0000
0000
0000
0000
0110
0000
0000
0000
,
0000
0110
0000
1001
0000
0110
0000
1001
0000
0110
0000
1010
0000
0101
0000
0101
,
0000
0000
0000
0000
0000
0000
0101
0000
0000
0000
0000
0000
0000
0000
0000
0000
0000
0000
0000
0000
0000
0000
0000
0000
0000
0000
0000
0000
0000
0000
1001
0000
0000
0000
0000
0000
0000
0000
0000
0000
0000
0000
0000
0000
0000
0000
0000
0000
0101
0000
0000
0000
0000
0000
0000
0000
0000
0000
0000
0000
1000
0000
0000
0000
0000
0000
0000
0000
0100
0000
0000
0000
0000
0000
0000
0000
0010
0000
0000
0000
0000
0000
0000
0000
0001
0000
0000
0000
0000
0000
0000
0000
0010
0000
0000
0000
0000
0000
0000
0000
0100
0000
0000
0000
0000
0000
0000
0000
1000
0000
0000
0000
0000
0000
0000
0000
0100
0000
0000
0000
0000
0000
0000
0000
0001
0000
0000
0000
0000
0000
0000
0000
0100
0000
0000
0000
0000
0000
0000
0000
1000
0000
0000
0000
0000
0000
0000
0000
0100
0000
0000
0000
0000
0000
0000
0000
0001
0000
0000
0000
0000
0000
0000
0000
0100
0000
0000
0000
0000
0000
0000
0000
0001
0000
0000
0000
0000
0000
0000
0000
0010
0000
0000
0000
0000
0000
0000
0000
1000
0000
0000
0000
,
0000
0100
0000
0010
0000
1000
0000
0100
0000
0001
0000
0010
0000
0100
0000
1000
0000
0001
0000
0010
0000
0100
0000
1000
0000
0001
0000
0100
0000
1000
0000
0100
0000
0001
0000
0100
0000
0010
0000
0001
0000
0100
0000
0010
0000
0001
0000
0100
,
0000
0000
0000
0000
1000
0000
0000
0000
0000
0000
0000
0000
0001
0000
0000
0000
0000
0000
0000
0000
0010
0000
0000
0000
0000
0000
0000
0000
0100
0000
0000
0000
0000
0000
0000
0000
1000
0000
0000
0000
0000
0000
0000
0000
0100
0000
0000
0000
0000
0000
0000
0000
0001
0000
0000
0000
0000
0000
0000
0000
1110
0000
0000
0000
0000
0000
0000
0000
0001
0000
0000
0000
0000
0000
0000
0000
1000
0000
0000
0000
0000
0000
0000
0000
0010
0000
0000
0000
0000
0000
0100
0000
0000
0000
0000
0000
1000
0000
0000
0000
0000
0000
0100
0000
0000
0000
0000
0000
0010
0000
0000
0000
0000
0000
0001
0000
0000
0000
0000
0000
1000
0000
0000
0000
0000
0000
0100
0000
0000
0000
0000
0000
0010
0000
0000
0000
0000
0000
0001
0000
0000
0000
0000
0000
0010
0000
0000
0000
0000
0000
0100
0000
0000
0000
0000
0000
1000
0000
0000
0000
0000
0000
0001
0000
0000
0000
0000
0000
0010
0000
0000
0000
0000
0000
0100
0000
0000
0000
0000
0000
1000
0000
0000
0000
0000
0000
0001
0000
0000
0000
0000
0000
,
0010
0100
0010
0001
0100
1000
0001
0100
0010
0001
0100
0010
0001
0010
0100
0001
0010
0100
0010
0001
0100
0010
0001
0100
,
0010
0001
0010
0100
0001
0010
0100
1000
0001
0010
0100
1000
0001
0010
0100
1000
0111
0000
0000
0000
0000
0000
0000
1111
,
0000
0000
0000
0000
0000
0000
0000
0000
0000
1001
0000
0000
0100
1000
0010
0100
0001
1000
0101
0000
1000
0001
0100
0001
,
1010
0001
0100
0010
0001
1000
0101
1000
0010
1000
0100
0010
1100
0010
0001
0100
1000
0100
1001
0010
0100
0010
0001
1000
,
0110
1000
0100
0010
0001
1000
0101
1000
0100
0010
0001
1000
0101
1000
0100
0010
0001
1000
0101
1000
0100
0010
0001
1000
,
0101
0010
0100
1000
0100
0010
1100
0001
1100
0010
0101
1000
0010
0100
0001
0100
0010
0001
1010
0100
1010
0001
1100
0010
,
0101
1000
0110
1000
0101
0010
1100
0001
0110
1000
0110
1000
0101
0010
0001
0100
0001
0010
1000
0010
0001
0000
0000
0000
,
0000
0000
0000
0000
,
1001
0010
0100
0001
0010
0100
1001
0010
0100
0010
0001
0100
1010
0001
0010
0100
0001
0010
1100
0001
0010
0100
0010
0001
,
1100
0010
0001
0100
0010
0001
1100
0001
0010
0100
0001
0010
1100
0001
0010
0100
0001
0010
1100
0001
0010
0100
0001
0010
,
1100
0001
0010
0100
0001
0010
1100
0001
0010
0100
0001
0010
1100
0001
0010
0100
0001
0010
1100
0001
0010
0100
0001
0010
,
1100
0001
0010
0100
0001
0010
1100
0001
0010
0100
0010
0001
1100
0001
0010
0100
0001
0010
1100
0001
0010
0100
0001
0010
,
1100
0001
0010
0100
0010
0001
1100
0001
0010
0100
0010
0001
1100
0001
0010
0100
0010
0001
1100
0001
0010
0100
0001
0010
,
1100
0010
0100
1000
0100
0010
1001
0010
0100
1000
0100
0010
1001
0010
0100
1000
0100
0010
1001
0010
0100
1000
0100
0010
,
1001
0010
0100
0010
0001
0010
1100
0010
0001
0010
0100
0010
0101
0010
0100
1000
0100
1000
0100
0001
0010
0001
0100
1000
,
0101
0010
0001
1000
0100
1000
0100
0010
0001
0010
0100
0010
0001
0010
0100
0010
0001
0010
0100
0001
0010
1000
0100
1000
,
0100
0002
0000
0000
0000
0000
0000
0000
0000
0000
0000
0000
0000
0000
0000
0000
0100
0000
0000
1000
0000
0000
0100
0000
,
0000
2003
0000
0000
0000
0000
0000
0000
0000
0000
0000
0000
0000
0000
0000
0000
0000
0000
0000
0001
0000
0000
0100
0000
,
0000
3010
0000
0000
0200
0000
0000
0000
0000
0000
0000
0000
0000
0000
0000
0000
0000
0000
0000
0000
0000
0000
0000
0000
,
0001
0010
1000
0001
0310
0100
0000
0000
0000
1001
0000
0000
0110
0000
0000
1001
0000
0000
0110
0000
0000
1001
0000
0000
,
0110
0000
0000
1001
0000
0110
0000
0000
0000
1001
0000
0000
0000
0110
0000
0000
0000
0000
0000
0000
0000
0000
0000
0000
,
0000
0000
0000
0000
,
1001
0010
0100
0001
0010
0100
1001
0010
0100
0010
0001
0100
1010
0001
0010
0100
0001
0010
1100
0001
0010
0100
0010
0001
,
1100
0010
0001
0100
0010
0001
1100
0001
0010
0100
0001
0010
1100
0001
0010
0100
0001
0010
1100
0001
0010
0100
0001
0010
,
1100
0001
0010
0100
0001
0010
1100
0001
0010
0100
0001
0010
1100
0001
0010
0100
0001
0010
1100
0001
0010
0100
0001
0010
,
1100
0001
0010
0100
0001
0010
1100
0001
0010
0100
0010
0001
1100
0001
0010
0100
0001
0010
1100
0001
0010
0100
0001
0010
,
1100
0001
0010
0100
0010
0001
1100
0001
0010
0100
0010
0001
1100
0001
0010
0100
0010
0001
1100
0001
0010
0100
0001
0010
,
1100
0010
0100
1000
0100
0010
1001
0010
0100
1000
0100
0010
1001
0010
0100
1000
0100
0010
1001
0010
0100
1000
0100
0010
,
1001
0010
0100
0010
0001
0010
1100
0010
0001
0010
0100
0010
0101
0010
0100
1000
0100
1000
0100
0001
0010
0001
0100
1000
,
0101
0010
0001
1000
0100
1000
0100
0010
0001
0010
0100
0010
0001
0010
0100
0010
0001
0010
0100
0001
0010
1000
0100
1000
,
0000
0002
0000
0000
0000
0000
0000
0000
0000
0000
0000
0000
0000
0000
0000
0000
0100
0000
0000
1000
0000
0000
0100
0000
,
0000
2003
0000
0000
0000
0000
0000
0000
0000
0000
0000
0000
0000
0000
0000
0000
0000
0000
0000
0001
0000
0000
0100
0000
,
0000
3010
0000
0000
0200
0000
0000
0000
0000
0000
0000
0000
0000
0000
0000
0000
0000
0000
0000
0000
0000
0000
0000
0000
,
1001
0000
0000
0300
0000
0000
0000
0000
0000
0000
0000
0000
0000
0000
0000
0000
1001
0000
0000
0000
0000
0000
0000
0000
0110
0000
0000
0000
0000
0000
0000
0000
1001
0000
0000
0000
0000
0000
0000
0000
0110
0000
0000
0000
0000
0000
0000
0000
1001
0000
0000
0000
0000
0000
0000
0000
0110
0000
0000
0000
0000
0000
0000
0000
,
0110
0110
1001
0110
1001
0110
1001
1001
,
1001
1001
0110
1001
1001
1001
0110
0110
,
0110
0011
1100
0011
1100
0011
1100
0011
,
0011
0000
0000
1000
0100
0010
0001
0010
0100
0010
0001
0100
0010
0001
0100
0010
0001
0100
0010
0001
0100
0010
0001
0010
,
0100
0001
0010
0100
0001
0010
1100
0010
0001
0100
0010
0001
0100
0010
0001
0100
0010
0001
0010
0100
0001
0010
0100
0010
,
0001
0100
0010
0001
0100
0010
1001
0100
0010
0001
0010
0100
0001
0010
0100
0001
0010
0100
0001
0010
0100
0010
0001
0100
,
0010
0001
0100
0010
0001
0100
0010
0001
0010
0100
0001
0010
0100
0010
0001
1100
0010
0001
1100
0010
0001
1100
0010
0001
,
1010
0100
0010
0001
0010
0100
1001
0010
0100
1000
0010
0100
1000
0100
0010
1000
0100
0010
1000
0100
0010
1000
0100
0010
,
0100
1000
0010
0100
1000
0010
0101
1000
0010
0100
1000
0100
0010
1000
0100
0010
1000
0100
0010
1000
0100
0010
0100
1000
,
0010
0100
1000
0010
0100
1000
0011
0100
1000
0010
0100
1000
0100
0010
1000
0100
0010
1000
0100
0010
1000
0100
0010
1000
,
0100
0010
0100
1000
0100
0010
0001
1000
0100
0010
0001
1000
0100
0010
0001
1000
0100
0010
1001
0000
0000
0110
0000
0000
,
1001
0000
1001
0000
0011
0000
0110
1100
,
0011
0000
0000
0000
0000
0000
0011
0100
0010
0001
0100
0010
0001
0100
0010
0001
0010
0100
0001
0010
0100
0001
0010
0100
,
0001
0000
0010
0000
0100
0000
0010
0000
0001
0000
0010
0000
1100
0000
0000
0001
0000
0000
0100
0000
0000
0001
0000
0000
0100
0000
0000
0001
0000
0000
0100
0000
0000
0001
0000
0000
1100
0000
0000
0010
0000
0000
0100
0000
0000
0010
0000
0000
,
0100
0010
0100
0010
0101
1000
0001
1000
0001
1000
0001
1000
0011
0100
0001
0100
,
0001
0100
0001
0100
0011
1000
0010
1000
0010
1000
0010
1000
0010
1000
0010
1000
,
0010
1000
0010
1000
0010
1000
0010
1000
0010
1000
0010
1000
0010
1000
0010
1000
,
0010
1000
0010
1000
0111
0000
0000
0000
0000
0000
0000
0000
1111
0000
0000
0000
,
0000
1111
0000
0000
;
